免费教程游戏娱乐平台注册就送25,视频教程游戏娱乐平台注册就送25,VIP新宝马娱乐注册送28元游戏娱乐平台注册就送25,精品MV音乐游戏娱乐平台注册就送25

当前位置:网站首页 / 中文歌曲 / 正文

沈雁《歌林巨星經典復刻盤22》歌林唱片KLA-22[WAV]

沈雁《歌林巨星經典復刻盤22》歌林唱片KLA-22[WAV]

沈雁《歌林巨星經典復刻盤22》歌林唱片KLA-22[WAV]

沈雁《歌林巨星經典復刻盤22》歌林唱片KLA-22[WAV]

沈雁《歌林巨星經典復刻盤22》歌林唱片KLA-22[WAV]

2009-沈雁-歌林巨星經典復刻盤22

01-踏浪

02-我踏浪而來

03-在這裡

04-長夏的風鈴

05-山頭牧歌

06-我想問你

07-一首小詩

08-大海就在前方

09-心語

10-愛在我心中

11-海之雁

12-浮萍

13-風兒多麼羨慕他

14-倦鳥

15-一多玫瑰花

REM DATE 2009

REM DISCID C90B250F

REM COMMENT "ExactAudioCopy v0.99pb5"

CATALOG 0000000000000

PERFORMER "沈雁"

TITLE "歌林巨星經典復刻盤22"

FILE "沈雁 - 歌林巨星經典復刻盤22.wav" WAVE

TRACK 01 AUDIO

TITLE "踏 浪"

PERFORMER "沈雁"

INDEX 01 00:00:00

TRACK 02 AUDIO

TITLE "我踏浪而來"

PERFORMER "沈雁"

INDEX 00 02:43:42

INDEX 01 02:45:43

TRACK 03 AUDIO

TITLE "在這裡"

PERFORMER "沈雁"

INDEX 00 06:03:41

INDEX 01 06:05:42

TRACK 04 AUDIO

TITLE "長夏的風鈴"

PERFORMER "沈雁"

INDEX 00 09:32:33

INDEX 01 09:34:34

TRACK 05 AUDIO

TITLE "山頭牧歌"

PERFORMER "沈雁"

INDEX 00 13:13:26

INDEX 01 13:15:27

TRACK 06 AUDIO

TITLE "我想問妳"

PERFORMER "沈雁"

INDEX 00 15:42:01

INDEX 01 15:44:02

TRACK 07 AUDIO

TITLE "一首小詩"

PERFORMER "沈雁"

INDEX 00 18:38:11

INDEX 01 18:40:12

TRACK 08 AUDIO

TITLE "大海就在前方"

PERFORMER "沈雁"

INDEX 00 21:42:71

INDEX 01 21:44:72

TRACK 09 AUDIO

TITLE "心 語"

PERFORMER "沈雁"

INDEX 00 24:04:52

INDEX 01 24:06:53

TRACK 10 AUDIO

TITLE "愛在我心中"

PERFORMER "沈雁"

INDEX 00 26:59:14

INDEX 01 27:01:15

TRACK 11 AUDIO

TITLE "海之雁"

PERFORMER "沈雁"

INDEX 00 30:14:68

INDEX 01 30:16:69

TRACK 12 AUDIO

TITLE "浮 萍"

PERFORMER "沈雁"

INDEX 00 33:20:17

INDEX 01 33:22:21

TRACK 13 AUDIO

TITLE "風兒多麼羨慕牠"

PERFORMER "沈雁"

INDEX 00 37:20:39

INDEX 01 37:22:40

TRACK 14 AUDIO

TITLE "倦 鳥"

PERFORMER "沈雁"

INDEX 00 40:11:23

INDEX 01 40:13:24

TRACK 15 AUDIO

TITLE "一朵玫瑰花"

PERFORMER "沈雁"

INDEX 00 43:24:45

INDEX 01 43:26:46

高速游戏娱乐平台注册就送25地址1

高速游戏娱乐平台注册就送25地址2

备用游戏娱乐平台注册就送25地址

推荐阅读

文章标签: 无损 高品质 中文 WAV

版权声明: 本新宝马娱乐注册送28元全部来源于互联网,仅供游戏娱乐平台注册就送25试听试看,版权归出品公司所有.如有侵犯您的权利请联系我们删除!

本文链接: http://www.cmsdirectory.com/post/66848.html,尊重共享,欢迎转载,请自觉添加本文链接,谢谢!

分享本文: 请填写您的分享代码。

已有1位网友发表了看法:

头像
1L小英继续作 2018-09-15 10:09:32 回复
cue文件无法打开,Mac系统,想用XLD转码或者用VLC读取cue播放都不行。站里另外一个该专辑的游戏娱乐平台注册就送25链接也是一样的问题

发表评论

必填

选填

选填

◎欢迎参与讨论,请在这里发表您的看法、交流您的观点。

请填写你的代码,或者删除本行文字。

游戏娱乐平台注册就送25